12.Monkeys.S03E06.720p.BluRay.X264-DEFLATE | Allen Gregory | Episode n° 16Hellsing Ultimate | How/when did you become a pirate? Who are your pirating mentors/sheroes? | Chance #2 - One More Chance
jovemempresario.com - The Largest Bittorent System Login   |    Register
Latest Articles
Most searched
Hot torrents
Movie Torrents
View Torrent Info: Rampage (2018) [720p] [YTS] [YIFY]
View Torrent Info: Ready Player One (2018) [720p] [YTS] [YIFY]
View Torrent Info: Escape Plan 2: Hades (2018) [720p] [YTS] [YIFY]
View Torrent Info: Blockers (2018) [720p] [YTS] [YIFY]
View Torrent Info: Life of the Party (2018) [720p] [YTS] [YIFY]
View Torrent Info: The Death of Superman (2018) [720p] [YTS] [YIFY]
View Torrent Info: Isle of Dogs (2018) [720p] [YTS] [YIFY]
View Torrent Info: Set It Up (2018) [720p] [YTS] [YIFY]
View Torrent Info: Beirut (2018) [720p] [YTS] [YIFY]
View Torrent Info: Ghostland (2018) [720p] [YTS] [YIFY]
Hot torrents
TV Torrents
View Torrent Info: Westworld.S02E09.WEB.H264-DEFLATE[eztv]
View Torrent Info: Supergirl.S03E23.HDTV.x264-KILLERS[eztv]
View Torrent Info: The.Originals.S05E09.HDTV.x264-KILLERS[eztv]
View Torrent Info: The.Expanse.S03E11.HDTV.x264-KILLERS[eztv]
View Torrent Info: Colony.S03E08.HDTV.x264-KILLERS[eztv]
View Torrent Info: Into.the.Badlands.S03E08.HDTV.x264-SVA[eztv]
View Torrent Info: Last.Week.Tonight.With.John.Oliver.S05E15.HDTV.x264-UAV[eztv]
View Torrent Info: Elementary.S06E08.HDTV.x264-LOL[eztv]
View Torrent Info: Reverie.S01E04.HDTV.x264-KILLERS[eztv]
View Torrent Info: 12.Monkeys.S04E01.HDTV.x264-KILLERS[eztv]
jovemempresario.com > Categories > Music torrents > Lossless torrents


Browse Music torrents

Alter Bridge - 2017 - Blackbird torrent



Download torrent: Download Alter Bridge - 2017 - Blackbird torrent Magnet link Bookmark Torrent: Alter Bridge - 2017 - Blackbird Alter Bridge - 2017 - Blackbird torrent | if not working, try instead: Magnet Link
Info hash: 4173373A8393EBA34916340B7996B9F15B893F66
Category: Categories > Music torrents > Lossless torrents
Trackers:
1    View all torrent trackers >
Health:
 seeds: 0 ,  leechers: 0 |  Update >
Torrent language:  
Total Size: 448.80 MB
Torrent status: Added by trusted uploader Added by trusted uploader Trusted Uploader Site Friend Superman Sun
Uploader: Trusted Uploader Site Friend Superman Sun
Torrent added: 2018-06-10 16:27:05
 

Download Alter Bridge - 2017 - Blackbird torrent if not working, try downloading torrent using Download Alter Bridge - 2017 - Blackbird via Magnet Link




Torrent Description





--------------------------------------------------------------------------------
Analyzed: Alter Bridge / Blackbird
--------------------------------------------------------------------------------

DR Peak RMS Duration Track
--------------------------------------------------------------------------------
DR12 -6.15 dB -20.75 dB 3:19 01-Ties That Bind
DR12 -6.24 dB -19.79 dB 3:51 02-Come To Life
DR12 -6.10 dB -20.40 dB 4:46 03-Brand New Start
DR12 -6.75 dB -20.60 dB 4:30 04-Buried Alive
DR12 -7.46 dB -21.63 dB 4:14 05-Coming Home
DR12 -6.84 dB -20.32 dB 4:06 06-Before Tomorrow Comes
DR12 -7.17 dB -21.26 dB 4:15 07-Rise Today
DR11 -7.39 dB -21.91 dB 7:49 08-Blackbird
DR12 -6.78 dB -20.66 dB 4:16 09-One By One
DR12 -6.91 dB -22.62 dB 4:18 10-Watch Over You
DR12 -8.24 dB -22.32 dB 3:52 11-Break Me Down
DR12 -6.23 dB -20.75 dB 4:20 12-White Knuckles
DR12 -7.21 dB -21.68 dB 4:43 13-Wayward One
--------------------------------------------------------------------------------

Number of tracks: 13
Official DR value: DR12

Samplerate: 96000 Hz
Channels: 2
Bits per sample: 24
Bitrate: 1038 kbps
Codec: FLAC
================================================================================



#KATJohnRambo -> To avoid fakes, ALWAYS check that the torrent was added on jovemempresario.com by KATJohnRambo

http://jovemempresario.com/



Download Alter Bridge - 2017 - Blackbird torrent


Comments (please add your comment)
No comments



Home - Browse Torrents - Upload Torrent - Stat - Forum - FAQ - Login
jovemempresario.com is in compliance with copyrights
2006-2018 jovemempresario.com